Favicon Svethardware.cz  Svět hardware   Fórum Favicon Svetmobilne.cz  Svět mobilně Favicon Svetaudia.cz  Svět audia Favicon Digimanie.cz  Digimanie   Fórum   Galerie
Zobrazené výsledky: 1 až 9 z 9

Téma: export do .flv

  1. #1
    Nováček
    Registrace
    Nov 2008
    Příspěvků
    13

    Ahojte.

    Neviem si rady s exportom videa do flv.

    Mam animaciu vytvorenu v After Effects a vyrenderovanu v uncompressed avi ( 34s, 25FPS, 960x540 ). Animacia je viac menej dynamicka, casto dochadza k zmene obrazu (snezenie, znema textov ... ). Potrebujem ju dostat na sever kde je flv jedine riesenie.

    Na prevod do flv pouzivam Media Encoder CS5 - on2 VP6 enkoder, problem je v tom ze nech su nastavenia akekolvek, vysledna velkost a kvalita je vzdy takmer rovnaka.
    Napr. 3000Kbps, CBR - 9.2 MB, 9000Kbps VBR 2 pass - 10MB .. skusal som uz vsetky mozne nastavenia ale nic. Potreboval by som bitrate okolo 4500Kbps ale vysledok je vzdy okolo 10Mb. Skusal som to na dvoch PC ale vysledok je rovnaky.
    Odpovídat lze po přihlášení

  2. #2

    ai ai je offline
    Je tu pořád
    Registrace
    Feb 2007
    Příspěvků
    3,739

    na enkodovani flv se pouzival i tento free soft http://www.videohelp.com/tools/Riva-FLV-Encoder

    ale to uz je skutecne historie, flash prehravac prehraje dnes i H.264 video (v mp4) , enkodujes nejaky jednoduchy profil Base nebo Main @level 3.1 pokud tu jde o silu CPU
    Odpovídat lze po přihlášení



  3. #3
    Nováček
    Registrace
    Nov 2008
    Příspěvků
    13

    Vdaka, vyskusam,

    ale ide mi skor o to preco nema finalne flv taky bitrate aky mu nastavim. Do nejakych 2500Kbps to poslucha, ale to ako keby bola horna hranica, dam bitrate 10 000 a vysledny je 2600. Ci je to tym ze video je kratke ..

    Prave som to skusal enkodovat v pazera free video flv encoder a tu je log

    ----------
    Input #0, avi, from 'C:\Users\Dominik\Desktop\uncompressedNew.avi':
    Duration: 00:00:34.84, start: 0.000000, bitrate: 312585 kb/s
    Stream #0.0: Video: rawvideo, bgr24, 960x540, 25.00 tb(r)
    Stream #0.1: Audio: pcm_s16le, 48000 Hz, stereo, s16, 1536 kb/s
    Output #0, flv, to 'C:\Users\Dominik\Desktop\uncompressedNew_002.flv' :
    Stream #0.0: Video: flv, yuv420p, 960x540, q=2-31, pass 2, 6000 kb/s, 25.00 tb(c)
    Stream #0.1: Audio: libmp3lame, 44100 Hz, stereo, s16, 128 kb/s
    Stream mapping:
    Stream #0.0 -> #0.0
    Stream #0.1 -> #0.1
    [flv @ 010AF650][lavc rc] Using all of requested bitrate is not necessary for this video with these parameters.
    video:8046kB audio:549kB global headers:0kB muxing overhead 0.406094%
    -----------

    Takze "Using all of requested bitrate is not necessary for this video with these parameters"

    toto bude asi problem
    Naposledy upraveno uživatelem Domin1k: 30-11-2012 v 10:42
    Odpovídat lze po přihlášení

  4. #4
    Je tu pořád Avatar uživatele vivid.sk
    Registrace
    May 2009
    Příspěvků
    12,551

    Na videu nemas ziadnu narocnu (pohyblivu) scenu, takze podla enkodera nema zmysel ist vyssie s bitratom (overkill).
    Odpovídat lze po přihlášení

  5. #5
    Nováček
    Registrace
    Nov 2008
    Příspěvků
    13

    Neda sa to nejak obist ? Nechcu mi to akceptovat kym nezmiznu tie pruhy pri farebnych prechodoch - http://dl.dropbox.com/u/77433589/ukazka.png

    Ma zmysel to skusat v ffmpeg ?
    Odpovídat lze po přihlášení

  6. #6
    Je tu pořád Avatar uživatele vivid.sk
    Registrace
    May 2009
    Příspěvků
    12,551

    Ma

    P.S. aky je dovod pouzitia tohto kontajnera? Ak uz to nutne potrebujes, enkoduj v H264, nastav si kvalitu aku pozadujes (napriklad pevny bitrate, 1pass) a vo ffmpeg len prehod bez straty kvality do kontajnera flv.
    Naposledy upraveno uživatelem vivid.sk: 30-11-2012 v 12:11
    Odpovídat lze po přihlášení

  7. #7
    Nováček
    Registrace
    Nov 2008
    Příspěvků
    13

    Neviem aky je dovod, uz vela uzivatelov sa to tam pytalo, jednoducho v inom to nezoberu

    .. Skusim cez ten ffmpeg
    Odpovídat lze po přihlášení



  8. #8
    Nováček
    Registrace
    Nov 2008
    Příspěvků
    13

    No tak som to prehodil z mp4 (h264) do flv. No uz to ide. Este sa chcem opytat, je sanca ze by im to nejak neprehralo ? Viem ze je to uz kontajner flv, ale pre istotu ..
    Odpovídat lze po přihlášení

  9. #9
    Je tu pořád Avatar uživatele vivid.sk
    Registrace
    May 2009
    Příspěvků
    12,551

    To je uz otazka na "nich".
    Kedysi v starych flv videach sa pouzival kodek H263/Sorenson. Dnes je uz standard H264, takze nepredpoklam, ze by ti to vravili (aj ked nikdy nevrav hop, kym ...)
    Odpovídat lze po přihlášení

Podobná témata

  1. Export z AP CS5
    Od Dodlo v sekci Kodeky
    Reakcí: 0
    Poslední příspěvek: 03-06-2010, 08:47
  2. Export v EDIUS 5
    Od MartasKP v sekci Editace videa
    Reakcí: 5
    Poslední příspěvek: 28-05-2010, 10:50
  3. Export na DVD v Ediusu 5
    Od mirekvsetecka v sekci Editace videa
    Reakcí: 0
    Poslední příspěvek: 25-05-2010, 12:30
  4. COREL - export do PDF
    Od Fantas! v sekci Problémy s PC (HW/SW)
    Reakcí: 14
    Poslední příspěvek: 20-01-2006, 23:34