Favicon Svethardware.cz  Svět hardware   Fórum Favicon Svetmobilne.cz  Svět mobilně Favicon Svetaudia.cz  Svět audia Favicon Digimanie.cz  Digimanie   Fórum   Galerie
Zobrazené výsledky: 1 až 5 z 5

Téma: Jak přehrát Full SBS

  1. #1
    Nováček
    Registrace
    Dec 2011
    Příspěvků
    6

    Zdravím,

    vlastním LG 42LW4500 a nemůžu přijít na to, jak zprovoznit 3D Full SBS video. TV ho nepřehraje, přehrávač nemám, tak jsem zkoušel přes PC s HDMI 1.4 a Stereoscopic player, ale vůbec netuším, jak v něm nastavit obraz, aby se zobrazil správně. V 3D nastavení na televizi mám totiž pouze možnosti top/bottom, left/right a konverzi. Grafickou kartu mám Nvidia 425M. Jde to nějak přes Nvidia 3DTV Play?
    Odpovídat lze po přihlášení

  2. #2
    Moderátor Avatar uživatele KamilZ
    Registrace
    Feb 2011
    Příspěvků
    12,270

    Jestli je to opravdu SBS, tak by mělo zabrat v TV jeden z režimů top/bottom nebo left/right. Hoď sem výpis z MediaInfo. Jak to vypadá, když to spustíš v PC v "obyčejném" přehrávači?
    Odpovídat lze po přihlášení



  3. #3
    Nováček
    Registrace
    Dec 2011
    Příspěvků
    6

    TV zvládá pouze Half SBS. U Full SBS píše nepodporovaný formát. Přehrát jsem to zkoušel třeba v MPC-HC, Splash Pro a nepřehrál ani jeden. Ale už jsem aspoň trochu pokročil. Zvládá mi to přehrát Stereoscopic Player v kombinaci s Nvidia 3DTV Play. Jenže má to několik háčků. Oba programy jsou placené, obraz je trochu zpožděný a video nejde v rezimu celé obrazovky posouvat (to se dá přežít).

    General
    Unique ID : 251902586059617142512373743064321508006 (0xBD82AC611065E0BD8309634B7FE642A6)
    Complete name : I:\3D\Avatar (Avatar)\Avatar.3D.2009.1080p.BluRay.Full.SBS.DTS. CZ.x264.mkv
    Format : Matroska
    Format version : Version 2
    File size : 32.1 GiB
    Duration : 2h 41mn
    Overall bit rate : 28.5 Mbps
    Encoded date : UTC 2011-11-16 19:26:27
    Writing application : mkvmerge v4.4.0 ('Die Wiederkehr') built on Oct 31 2010 21:52:48
    Writing library : libebml v1.0.0 + libmatroska v1.0.0

    Video
    ID : 1
    Format : AVC
    Format/Info : Advanced Video Codec
    Format profile : High@L4.1
    Format settings, CABAC : Yes
    Format settings, ReFrames : 4 frames
    Muxing mode : Header stripping
    Codec ID : V_MPEG4/ISO/AVC
    Duration : 2h 41mn
    Bit rate : 26.5 Mbps
    Width : 3 840 pixels
    Height : 1 078 pixels
    Display aspect ratio : 3.562
    Frame rate : 23.976 fps
    Color space : YUV
    Chroma subsampling : 4:2:0
    Bit depth : 8 bits
    Scan type : Progressive
    Bits/(Pixel*Frame) : 0.267
    Stream size : 29.3 GiB (91%)
    Writing library : x264 core 116 r2074 2641b9e
    Encoding settings : cabac=1 / ref=4 / deblock=1:-3:-3 / analyse=0x3:0x113 / me=tesa / subme=10 / psy=1 / psy_rd=0.90:0.00 / mixed_ref=1 / me_range=24 / chroma_me=1 / trellis=2 / 8x8dct=1 / cqm=0 / deadzone=21,11 / fast_pskip=0 / chroma_qp_offset=-2 / threads=12 / sliced_threads=0 / nr=0 / decimate=0 / interlaced=0 / bluray_compat=0 / constrained_intra=0 / bframes=9 / b_pyramid=2 / b_adapt=2 / b_bias=0 / direct=3 / weightb=1 / open_gop=0 / weightp=2 / keyint=250 / keyint_min=23 / scenecut=40 / intra_refresh=0 / rc_lookahead=90 / rc=2pass / mbtree=1 / bitrate=26500 / ratetol=1.0 / qcomp=0.70 / qpmin=0 / qpmax=69 / qpstep=4 / cplxblur=20.0 / qblur=0.5 / ip_ratio=1.40 / aq=1:0.70
    Language : English
    Default : Yes
    Forced : No

    Audio #1
    ID : 2
    Format : DTS
    Format/Info : Digital Theater Systems
    Muxing mode : Header stripping
    Codec ID : A_DTS
    Duration : 2h 41mn
    Bit rate mode : Constant
    Bit rate : 1 510 Kbps
    Channel(s) : 6 channels
    Channel positions : Front: L C R, Side: L R, LFE
    Sampling rate : 48.0 KHz
    Bit depth : 24 bits
    Compression mode : Lossy
    Stream size : 1.71 GiB (5%)
    Language : English
    Default : Yes
    Forced : No

    Audio #2
    ID : 3
    Format : AC-3
    Format/Info : Audio Coding 3
    Mode extension : CM (complete main)
    Muxing mode : Header stripping
    Codec ID : A_AC3
    Duration : 2h 41mn
    Bit rate mode : Constant
    Bit rate : 448 Kbps
    Channel(s) : 6 channels
    Channel positions : Front: L C R, Side: L R, LFE
    Sampling rate : 48.0 KHz
    Bit depth : 16 bits
    Compression mode : Lossy
    Stream size : 518 MiB (2%)
    Language : Czech
    Default : No
    Forced : No

    Text #1
    ID : 4
    Format : UTF-8
    Codec ID : S_TEXT/UTF8
    Codec ID/Info : UTF-8 Plain Text
    Title : CZ
    Language : Czech
    Default : Yes
    Forced : No

    Text #2
    ID : 5
    Format : UTF-8
    Codec ID : S_TEXT/UTF8
    Codec ID/Info : UTF-8 Plain Text
    Title : SK
    Language : Slovak
    Default : No
    Forced : No

    Text #3
    ID : 6
    Format : UTF-8
    Codec ID : S_TEXT/UTF8
    Codec ID/Info : UTF-8 Plain Text
    Title : CZ forced
    Language : Czech
    Default : No
    Forced : No

    Text #4
    ID : 7
    Format : UTF-8
    Codec ID : S_TEXT/UTF8
    Codec ID/Info : UTF-8 Plain Text
    Title : SK forced
    Language : Slovak
    Default : No
    Forced : No

    Menu
    00:00:00.000 : en:00:00:00.000
    00:06:17.961 : en:00:06:17.961
    00:07:53.598 : en:00:07:53.598
    00:12:04.891 : en:00:12:04.891
    00:14:00.465 : en:00:14:00.465
    00:20:00.574 : en:00:20:00.574
    00:24:00.230 : en:00:24:00.230
    00:26:53.278 : en:00:26:53.278
    00:31:41.900 : en:00:31:41.900
    00:33:33.428 : en:00:33:33.428
    00:35:43.850 : en:00:35:43.850
    00:43:31.859 : en:00:43:31.859
    00:49:23.627 : en:00:49:23.627
    00:54:29.975 : en:00:54:29.975
    00:59:56.051 : en:00:59:56.051
    01:05:10.198 : en:01:05:10.198
    01:11:36.417 : en:01:11:36.417
    01:15:11.006 : en:01:15:11.006
    01:20:29.116 : en:01:20:29.116
    01:24:41.910 : en:01:24:41.910
    01:36:04.801 : en:01:36:04.801
    01:37:55.786 : en:01:37:55.786
    01:44:33.100 : en:01:44:33.100
    01:48:15.489 : en:01:48:15.489
    01:53:53.868 : en:01:53:53.868
    01:55:32.884 : en:01:55:32.884
    01:58:38.820 : en:01:58:38.820
    02:02:05.568 : en:02:02:05.568
    02:05:33.859 : en:02:05:33.859
    02:10:01.835 : en:02:10:01.835
    02:16:07.284 : en:02:16:07.284
    02:19:50.841 : en:02:19:50.841
    02:25:50.325 : en:02:25:50.325
    02:31:14.065 : en:02:31:14.065
    02:35:05.296 : en:02:35:05.296
    Naposledy upraveno uživatelem viiitezslav: 18-01-2012 v 12:00
    Odpovídat lze po přihlášení

  4. #4
    Je tu občas Avatar uživatele Hondiago
    Registrace
    Aug 2004
    Příspěvků
    107

    Ahoj, jen mě zajímá, je znát při FULL-SBS o dost lepší kvalita než u Half-SBS? Myslím tím hlavně hloubku, vykreslení a kvalitu 3D efektů.
    Máte někdo zkušenosti s tmto přehrávačem?
    http://www.evolve.cz/cz/d-evolve-inf...1.4-html5.html
    Zajímalo by mě, když mám 3D TV s aktivnmi brýlemi, tak když si spustím v tomto přehrávači 3D film, jak se ty brýle aktivují, když ragují jen na přepnutí 3D přímo v TV?
    H.
    Odpovídat lze po přihlášení

  5. #5
    Je tu občas
    Registrace
    Jan 2009
    Příspěvků
    148

    tak full sbs Ice Age Dawn of the Dinosaurs prehravano z PC do TV pres HDMI obraz je dost ostrej oproti half sbs
    Odpovídat lze po přihlášení

Podobná témata

  1. Nettop nezvládne přehrát full HD videa i přes VGA akceleraci
    Od gonsa v sekci Multimediální centra, DVD, Blu-ray
    Reakcí: 41
    Poslední příspěvek: 13-01-2011, 08:01
  2. Dvd-lab pro: přehrát vše
    Od Janke v sekci Mastering
    Reakcí: 3
    Poslední příspěvek: 17-01-2010, 07:26
  3. čím prehrať *.mod
    Od karolko95 v sekci Editace videa
    Reakcí: 3
    Poslední příspěvek: 02-01-2009, 01:30
  4. co umí přehrát raw
    Od stanix v sekci Editace audia
    Reakcí: 1
    Poslední příspěvek: 16-04-2008, 09:17