Favicon Svethardware.cz  Svět hardware   Fórum Favicon Svetmobilne.cz  Svět mobilně Favicon Svetaudia.cz  Svět audia Favicon Digimanie.cz  Digimanie   Fórum   Galerie
Zobrazené výsledky: 1 až 11 z 11

Téma: MOV do MJPEG?

  1. #1
    Je tu občas Avatar uživatele Deee-aN
    Registrace
    Jan 2008
    Příspěvků
    195

    Zdravím!

    Zakoupili jsme tchýni k Vánocům digitální fotorámeček (http://www.alfacomp.cz/php/product.p...4507X1X5000TGT). Původně vybraný LG, který umí přehrát MOV rovnou, měl problém s dostupností a tak jsme vzali tento. Říkal jsem si, že konverze z MOV (z mého Panasonicu) do jiného formátu nebude problém. Ale....
    V manuálu se píše:"Tato jednotka může přehrávat formáty filmu JPEG/BMP a AVI (Motion JPEG)."
    I stáhl jsem několik prográmků a konvertoval. Výsledky téměř identické: buď rámeček videosoubor vůbec nerozeznal, nebo místo něj ukazoval křížek v červeném kroužku. Bez zvuku....
    Máte někdo tip na program, který by to zvládl? Respektive s jakým nastavením.

    Děkuji!
    Odpovídat lze po přihlášení

  2. #2

    StD StD je offline
    Je tu pořád Avatar uživatele StD
    Registrace
    Mar 2004
    Příspěvků
    10,632

    No jde o to, co v tom MOVu máš - jestli avi nebo mpeg. Mrkni na to GSpotem. Jinak nejlépe a nejrychleji bych ti to překlopil do MJPEGu v ProCoderu, ale jde to (s určitým drbáním na hlavě) třeba i v obyč. Pinnacle Studiu a jiných střižnách.
    P.S. Na ten Mjpeg ještě koukni, jaký formát to "žere", jestli 720x576...
    Naposledy upraveno uživatelem StD: 12-12-2009 v 21:35
    Odpovídat lze po přihlášení



  3. #3
    Je tu občas Avatar uživatele Deee-aN
    Registrace
    Jan 2008
    Příspěvků
    195

    GSpot píše, že je to "codec JPEG" a "name: Apple Photo JPEG". Originál má rozlišení 840x480. Rámeček má nativní rozlišení 1024x600, ale to asi nebude mít na funkci vliv. Podívám se po tom ProCoderu.
    Odpovídat lze po přihlášení

  4. #4
    Je tu občas Avatar uživatele Deee-aN
    Registrace
    Jan 2008
    Příspěvků
    195

    Tak nevím. Někde je něco špatně. Ani v ProCoderu se mi to nepodařilo. Asi se tam musí něco přenastavit z defaultu, ale já netuším, co....
    Odpovídat lze po přihlášení

  5. #5

    StD StD je offline
    Je tu pořád Avatar uživatele StD
    Registrace
    Mar 2004
    Příspěvků
    10,632

    Citace Původně odesláno od Deee-aN Zobrazit příspěvek
    Tak nevím. Někde je něco špatně. Ani v ProCoderu se mi to nepodařilo. Asi se tam musí něco přenastavit z defaultu, ale já netuším, co....
    A máš v tom MOVu obrázky nebo video, asi jsem to blbě pochopil.
    Edit: Nepřepsal jsi se u toho 840x480?? Nemá být správně 640x480?
    Naposledy upraveno uživatelem StD: 12-12-2009 v 22:25
    Odpovídat lze po přihlášení

  6. #6
    Je tu občas Avatar uživatele Deee-aN
    Registrace
    Jan 2008
    Příspěvků
    195

    Citace Původně odesláno od StD Zobrazit příspěvek
    A máš v tom MOVu obrázky nebo video, asi jsem to blbě pochopil.
    Edit: Nepřepsal jsi se u toho 840x480?? Nemá být správně 640x480?
    Je to video z foťáku (Panák FZ-50) a je wide. Ale přepsal jsem se. Je to 848x480.
    Odpovídat lze po přihlášení

  7. #7

    StD StD je offline
    Je tu pořád Avatar uživatele StD
    Registrace
    Mar 2004
    Příspěvků
    10,632

    Koukni se sem na tu diskusi ohledně formátu a tvaru:
    http://www.elementsvillage.com/forum...ad.php?t=47113
    (jde sice o zpracování v Adobe Elements, ale rozměrové zásady stejné).
    Odpovídat lze po přihlášení



  8. #8
    Nováček
    Registrace
    Feb 2007
    Příspěvků
    11

    adobe videa z foťáků jdou převádět v tomhle
    http://mp4cam2avi.sourceforge.net/
    Odpovídat lze po přihlášení

  9. #9

    ai ai je offline
    Je tu pořád
    Registrace
    Feb 2007
    Příspěvků
    3,739

    jestli to nechce primo ty videa z fotaku, ktere davaji videa do mjpeg a zvuk PCM:

    General
    Complete name : C:\PHOTOS\videos\2006_08050008.AVI
    Format : AVI
    Format/Info : Audio Video Interleave
    File size : 40.1 MiB
    Duration : 36s 0ms
    Overall bit rate : 9 353 Kbps

    Video
    Format : M-JPEG
    Codec ID : MJPG
    Duration : 36s 0ms
    Bit rate : 9 216 Kbps
    Width : 640 pixels
    Height : 480 pixels
    Display aspect ratio : 4/3
    Frame rate : 30.000 fps
    Resolution : 24 bits
    Scan type : Progressive
    Bits/(Pixel*Frame) : 1.000
    Stream size : 39.5 MiB (99%)
    Title : FUJIFILM AVI STREAM 0100

    Audio
    Format : PCM
    Format settings, Endianness : Little
    Format settings, Sign : Unsigned
    Codec ID : 1
    Codec ID/Hint : Microsoft
    Duration : 36s 0ms
    Bit rate mode : Constant
    Bit rate : 128 Kbps
    Channel(s) : 1 channel
    Sampling rate : 16.0 KHz
    Resolution : 8 bits
    Stream size : 563 KiB (1%)
    Interleave, duration : 1000 ms (30.00 video frames)
    Interleave, preload duration : 1000 ms
    Odpovídat lze po přihlášení

  10. #10
    Je tu občas Avatar uživatele Deee-aN
    Registrace
    Jan 2008
    Příspěvků
    195

    Jsem zpět a mám dobré zprávy. Sosnul jsem výše uvedený MP4Cam2AVI Easy Converter a s nastavením na PCM se to podařilo zkonvertovat tak, že to Genius vezme.
    Díky moc všem!

    EDIT: @StD - "Musíte ohodnotit bla-bla-bla...". Tak příště....
    Odpovídat lze po přihlášení

  11. #11

    StD StD je offline
    Je tu pořád Avatar uživatele StD
    Registrace
    Mar 2004
    Příspěvků
    10,632

    Citace Původně odesláno od Deee-aN Zobrazit příspěvek
    Jsem zpět a mám dobré zprávy. Sosnul jsem výše uvedený MP4Cam2AVI Easy Converter a s nastavením na PCM se to podařilo zkonvertovat tak, že to Genius vezme.
    Díky moc všem!

    EDIT: @StD - "Musíte ohodnotit bla-bla-bla...". Tak příště....
    Co já, to dej Matyyymu, ten ti to našel. Takže to žere jen nekomprimovaný wav? Já teda ve svých movech používám nejrůznější kodeky na audio - nejraději ALaw.
    Odpovídat lze po přihlášení

Podobná témata

  1. Mjpeg ve Vegas 8.0c
    Od Krist v sekci Editace videa
    Reakcí: 4
    Poslední příspěvek: 01-10-2008, 12:16
  2. video mjpeg
    Od Zdenek61 v sekci Editace videa
    Reakcí: 3
    Poslední příspěvek: 26-06-2006, 12:43
  3. MJPEG
    Od mysurra v sekci Kodeky
    Reakcí: 6
    Poslední příspěvek: 27-02-2006, 15:24
  4. MJPEG
    Od Falcon v sekci Zachytávání videa
    Reakcí: 1
    Poslední příspěvek: 30-11-2005, 08:09
  5. DV vs. MJPEG
    Od Ironfist v sekci Střižny s HW akcelerací
    Reakcí: 12
    Poslední příspěvek: 27-01-2005, 14:07