Zdravím,
Pokud zachytávám přes DV.now kartu, tak se mi to ukládá do souboru .DIF. Chtěl bych z takovéhoto souboru odstranit nějaké scény a znovu to uložit bez překodování do .DIF. Jaký program by to mohl umět? Tedy střih po okýnkách a uložit znovu do .DIF bez překodování?

Střihám v Premiéře. V ní jsem našel možnost to uložit do .MOV, nebo .AVI, nebo .MXF. Vše je to "rewraper". MediaInfo mi ukáže, že video proud je totožný s původním souborem, ale ještě mi k tomu Premiera přibalí další audiostopu, takže je výsledný soubor větší než původní. Původní soubor má audiostopu spolu s videostopou.

Přikládám výpis z MediaInfo. Původní soubor a přewrapovaný v APremiéře.
Format : DV
File size : 178 MiB
Duration : 51 s 880 ms
Overall bit rate mode : Constant
Overall bit rate : 28.8 Mb/s

Video
Format : DV
Duration : 51 s 880 ms
Bit rate mode : Constant
Bit rate : 24.4 Mb/s
Width : 720 pixels
Height : 576 pixels
Display aspect ratio : 4:3
Frame rate mode : Constant
Frame rate : 25.000 FPS
Standard : PAL
Chroma subsampling : 4:2:0
Bit depth : 8 bits
Scan type : Interlaced
Scan order : Bottom Field First
Compression mode : Lossy
Bits/(Pixel*Frame) : 2.357
Stream size : 151 MiB (85%)

a

Format : AVI
Format/Info : Audio Video Interleave
Commercial name : DV
File size : 188 MiB
Duration : 51 s 880 ms
Overall bit rate mode : Constant
Overall bit rate : 30.3 Mb/s
Recorded date : 2021-03-05T08:31:30+01:00
Writing application : Adobe Premiere Pro CC 2018.0 (Windows)

Video
ID : 0
Format : DV
Codec ID : dvsd
Codec ID/Hint : Sony
Duration : 51 s 880 ms
Bit rate mode : Constant
Bit rate : 24.4 Mb/s
Encoded bit rate : 28.8 Mb/s
Width : 720 pixels
Height : 576 pixels
Display aspect ratio : 4:3
Frame rate mode : Constant
Frame rate : 25.000 FPS
Standard : PAL
Color space : YUV
Chroma subsampling : 4:2:0
Bit depth : 8 bits
Scan type : Interlaced
Scan order : Bottom Field First
Compression mode : Lossy
Bits/(Pixel*Frame) : 2.357
Time code of first frame : 00:00:00:00 / 00:00:00:00
Time code source : Adobe tc_A / Adobe tc_O
Stream size : 178 MiB (95%)

Audio
ID : 1
Format : PCM
Format settings : Little / Signed
Codec ID : 1
Duration : 51 s 880 ms
Bit rate mode : Constant
Bit rate : 1 536 kb/s
Channel(s) : 2 channels
Sampling rate : 48.0 kHz
Bit depth : 16 bits
Stream size : 9.50 MiB (5%)
Alignment : Aligned on interleaves
Interleave, duration : 998 ms (24.94 video frames)
Interleave, preload duration : 1000 ms


Co s tím? Je na to nějaký jiný program vhodnější?

děkuji

(OS: WinXP, 7, 10)