Favicon Svethardware.cz  Svět hardware   Fórum Favicon Svetmobilne.cz  Svět mobilně Favicon Svetaudia.cz  Svět audia Favicon Digimanie.cz  Digimanie   Fórum   Galerie Společnost oXy Online s.r.o.
Zobrazené výsledky: 1 až 3 z 3

Téma: předbíhá se zvuk při přehrávání videa v 60 fps

  1. #1
    Je tu občas Avatar uživatele maiki
    Registrace
    Apr 2006
    Příspěvků
    155

    Oprava: předbíhá se zvuk před videem. Špatně jsem to popsal.

    Používám KM Player a všiml jsem si, že dochází k postupnému zaostávání video stopy za zvukem, pokud je snímková frekvence videa na 60 fps. Čím déle sledujete, tím více hraje zvuk dopředu. Když ručně posunu přehrávání na jiný bod ve videu, zvuk je opět synchronizován, takže se to viditelně projevuje po několika desítkách sekund nepřerušeného přehrávání. Nevíte někdo, proč k tomu dochází?

    c:\Temp\AirBusterNET.avi
    General
    Complete name : c:\Temp\AirBusterNET.avi
    Format : AVI
    Format/Info : Audio Video Interleave
    File size : 516 MiB
    Duration : 3mn 50s
    Overall bit rate : 18.8 Mbps
    Writing library : VirtualDub build 31953/release
    Video #0
    ID : 0
    Format : MPEG-4 Visual
    Format profile : Simple@L1
    Format settings, BVOP : No
    Format settings, QPel : No
    Format settings, GMC : No warppoints
    Format settings, Matrix : Default (H.263)
    Codec ID : XVID
    Codec ID/Hint : XviD
    Duration : 3mn 50s
    Bit rate : 18.6 Mbps
    Width : 640 pixels
    Height : 480 pixels
    Display aspect ratio : 4:3
    Frame rate : 60.000 fps
    Resolution : 24 bits
    Colorimetry : 4:2:0
    Scan type : Progressive
    Bits/(Pixel*Frame) : 1.007
    Stream size : 509 MiB (99%)
    Writing library : Lavc52.21.0
    Audio #1
    ID : 1
    Format : MPEG Audio
    Format version : Version 1
    Format profile : Layer 3
    Codec ID : 55
    Codec ID/Hint : MP3
    Duration : 3mn 50s
    Bit rate mode : Constant
    Bit rate : 256 Kbps
    Channel(s) : 2 channels
    Sampling rate : 48.0 KHz
    Resolution : 16 bits
    Stream size : 7.02 MiB (1%)
    Alignment : Split accross interleaves
    Interleave, duration : 17 ms (1.00 video frame)
    Interleave, preload duration : 500 ms
    Writing library : LAME3.98r
    Encoding settings : -m j -V 4 -q 3 -lowpass 19.7
    Naposledy upraveno uživatelem maiki: 03-12-2013 v 19:38
    Odpovídat lze po přihlášení

  2. #2
    Je tu pořád Avatar uživatele mirekv
    Registrace
    Mar 2004
    Příspěvků
    7,799

    Jak máš zatížený procesor? Zřejmě vypadávají snímky, takže se vlastně zvuk nepředbíhá, ale video zkracuje. KMPlayer nepoužívám, asi je tam nějaké nastavení kodeků, filtrů apod. Zkus nejaký jiný přehrávač a hlavně sleduj vytížení procesoru ve správci úloh, jesli tam nejsou nějaké špičky, ony nemusejí být ani 100% a už to blbne.
    Odpovídat lze po přihlášení



  3. #3
    Je tu pořád Avatar uživatele Foolproof
    Registrace
    Mar 2004
    Příspěvků
    2,715

    Nevím, co je to za klip, ale opravdu nejspíš nestíhá PC, klip je udělán evidentně hloupě, pro 640x480 dát bitrate 18.6 Mbps je nesmysl........

    Navíc Xvid je postaven na max birate 10 000. Bylo to děláno ve VirtualDubu, tedy musel být použít VfW kodek, (xvidvfw.dll) a ne enkoder.
    Při pohledu do zdrojáku (config.h) vidíme

    Kód:
    #define DEFAULT_MAX_KBPS	10000
    tato hodnota může být přepsána v unrestricted modu, ale je to k ničemu, ničeho se nedosáhne.
    Odpovídat lze po přihlášení

Podobná témata

  1. Zvuk z videa 23,97fps do videa 25fps
    Od Hondiago v sekci Editace videa
    Reakcí: 35
    Poslední příspěvek: 14-10-2012, 10:43
  2. Xtreamer SW - zpožďuje zvuk u filmů
    Od slatored v sekci Multimediální centra, DVD, Blu-ray
    Reakcí: 26
    Poslední příspěvek: 23-08-2012, 16:37
  3. Postprocessing videa v TV a zvuk
    Od ace960 v sekci Televize: LCD, plazma
    Reakcí: 22
    Poslední příspěvek: 20-08-2011, 21:21
  4. Reakcí: 0
    Poslední příspěvek: 28-11-2009, 12:15
  5. Rozcházející zvuk u videa!!!
    Od darken_tvf v sekci Editace videa
    Reakcí: 11
    Poslední příspěvek: 09-01-2006, 06:04