Favicon Svethardware.cz  Svět hardware   Fórum Favicon Svetmobilne.cz  Svět mobilně Favicon Svetaudia.cz  Svět audia Favicon Digimanie.cz  Digimanie   Fórum   Galerie
Strana 1 z 2 12 PosledníPoslední
Zobrazené výsledky: 1 až 15 z 21

Téma: Adobe premiere Pro CS6 - export AVCHD

  1. #1
    Nováček
    Registrace
    Oct 2012
    Příspěvků
    5

    Zdravím.

    Mám kameru Sony HDR-XR520 - nahrává ve formátu AVCHD 1920 x 1080/50i.

    Pro střih jsem začal používat Adobe Premiere Pro CS6 (přešel jsem na něj z nestabilního Pinnacle studia). Mám ale problém s vyexportovaným videem, které se trhá a PSD obrázek ve scéně problikává (viz. video na youtube).

    Již si nevím rady - několikrát jsem již provedl export s jiným nastavením parametr, ale je to pořád stejné

    Děkuji za radu..



    Odkaz pro stažení originálního a vyexportovaného videa:
    https://docs.google.com/folder/d/0B2...hJQXRQbXM/edit (Soubor -> stáhnout)

    Parametry vstupního souboru (*.m2ts)
    Kód:
    General
    ID                               : 0 (0x0)
    Complete name                    : G:\Italie - kamera\01658.MTS
    Format                           : BDAV
    Format/Info                      : Blu-ray Video
    File size                        : 23.0 MiB
    Duration                         : 11s 390ms
    Overall bit rate                 : 16.9 Mbps
    Maximum Overall bit rate         : 18.0 Mbps
    
    Video
    ID                               : 4113 (0x1011)
    Menu ID                          : 1 (0x1)
    Format                           : AVC
    Format/Info                      : Advanced Video Codec
    Format profile                   : High@L4.0
    Format settings, CABAC           : Yes
    Format settings, ReFrames        : 2 frames
    Format settings, GOP             : M=1, N=26
    Codec ID                         : 27
    Duration                         : 11s 360ms
    Bit rate mode                    : Variable
    Bit rate                         : 15.8 Mbps
    Maximum bit rate                 : 16.0 Mbps
    Width                            : 1 920 pixels
    Height                           : 1 080 pixels
    Display aspect ratio             : 16:9
    Frame rate                       : 25.000 fps
    Color space                      : YUV
    Chroma subsampling               : 4:2:0
    Bit depth                        : 8 bits
    Scan type                        : Interlaced
    Scan order                       : Top Field First
    Bits/(Pixel*Frame)               : 0.304
    Stream size                      : 21.4 MiB (93%)
    
    Audio
    ID                               : 4352 (0x1100)
    Menu ID                          : 1 (0x1)
    Format                           : AC-3
    Format/Info                      : Audio Coding 3
    Mode extension                   : CM (complete main)
    Codec ID                         : 129
    Duration                         : 11s 456ms
    Bit rate mode                    : Constant
    Bit rate                         : 448 Kbps
    Channel(s)                       : 6 channels
    Channel positions                : Front: L C R, Side: L R, LFE
    Sampling rate                    : 48.0 KHz
    Bit depth                        : 16 bits
    Compression mode                 : Lossy
    Delay relative to video          : -80ms
    Stream size                      : 627 KiB (3%)
    
    Text
    ID                               : 4608 (0x1200)
    Menu ID                          : 1 (0x1)
    Format                           : PGS
    Codec ID                         : 144
    Duration                         : 10s 855ms
    Delay relative to video          : -80ms
    Parametry výstupního souboru (*.mkv)
    Kód:
    General
    ID                               : 0 (0x0)
    Complete name                    : G:\Italie - hotovo\Italie\BDMV\STREAM\00000.m2ts
    Format                           : BDAV
    Format/Info                      : Blu-ray Video
    File size                        : 73.9 MiB
    Duration                         : 23s 40ms
    Overall bit rate                 : 26.9 Mbps
    Maximum Overall bit rate         : 48.0 Mbps
    
    Video
    ID                               : 4113 (0x1011)
    Menu ID                          : 1 (0x1)
    Format                           : AVC
    Format/Info                      : Advanced Video Codec
    Format profile                   : High@L4.1
    Format settings, CABAC           : Yes
    Format settings, ReFrames        : 4 frames
    Codec ID                         : 27
    Duration                         : 22s 920ms
    Bit rate mode                    : Constant
    Bit rate                         : 25.0 Mbps
    Width                            : 1 920 pixels
    Height                           : 1 080 pixels
    Display aspect ratio             : 16:9
    Frame rate                       : 25.000 fps
    Standard                         : PAL
    Color space                      : YUV
    Chroma subsampling               : 4:2:0
    Bit depth                        : 8 bits
    Scan type                        : Interlaced
    Scan order                       : Top Field First
    Bits/(Pixel*Frame)               : 0.482
    Stream size                      : 70.0 MiB (95%)
    Color primaries                  : BT.709-5, BT.1361, IEC 61966-2-4, SMPTE RP177
    Transfer characteristics         : BT.709-5, BT.1361
    Matrix coefficients              : BT.709-5, BT.1361, IEC 61966-2-4 709, SMPTE RP177
    
    Audio
    ID                               : 4352 (0x1100)
    Menu ID                          : 1 (0x1)
    Format                           : AC-3
    Format/Info                      : Audio Coding 3
    Mode extension                   : CM (complete main)
    Codec ID                         : 129
    Duration                         : 22s 880ms
    Bit rate mode                    : Constant
    Bit rate                         : 192 Kbps
    Channel(s)                       : 2 channels
    Channel positions                : Front: L R
    Sampling rate                    : 48.0 KHz
    Bit depth                        : 16 bits
    Compression mode                 : Lossy
    Stream size                      : 536 KiB (1%)
    Naposledy upraveno uživatelem kuba1999: 05-10-2012 v 14:51
    Odpovídat lze po přihlášení

  2. #2
    Je tu pravidelně Avatar uživatele 666dia
    Registrace
    Nov 2005
    Příspěvků
    884

    psd se mi netrhá...a na YouTube nedávej prokládaná videa....
    Odpovídat lze po přihlášení



  3. #3
    Nováček
    Registrace
    Oct 2012
    Příspěvků
    5

    Mým cílem není nechat video na youtube - vložil jsem jen část videa, aby bylo vidět, co mi to dělá.

    PSD vypadá na youtube OK - ale při přehrávání problikává.

    Kdyby měl nějakou radu, budu rád za pomoc.
    Odpovídat lze po přihlášení

  4. #4
    Je tu pravidelně Avatar uživatele 666dia
    Registrace
    Nov 2005
    Příspěvků
    884

    já jsem si to stáhl a mně to nebliká...
    Odpovídat lze po přihlášení

  5. #5

    ai ai je offline
    Je tu pořád
    Registrace
    Feb 2007
    Příspěvků
    3,739

    z youtube toho moc posuzovat nelze , provede se deinterlace a jeste se to zenkoduje vice, tedy vidime neco jineho , ukazka primo toho exportovaneho videa a jeste k tomu originalni video prozradi vsechno jak to je, treba ulozto.cz ...
    aha, sorry, mas tam i ukazky ...
    Odpovídat lze po přihlášení

  6. #6
    Je tu pravidelně Avatar uživatele 666dia
    Registrace
    Nov 2005
    Příspěvků
    884

    ai
    já to mám stažený...
    Odpovídat lze po přihlášení

  7. #7

    ai ai je offline
    Je tu pořád
    Registrace
    Feb 2007
    Příspěvků
    3,739

    taky mi tam nic neblika, obe dve videa, ... muzes konkretneji upresnit co blika a na jakem zobrazovaci to dela
    Odpovídat lze po přihlášení



  8. #8

    ai ai je offline
    Je tu pořád
    Registrace
    Feb 2007
    Příspěvků
    3,739

    to blikani muze zpusobit deinterlace (odstraneni prokladani), softwarovy prehravac to treba neudela dobre, ve WMP to ale treba neblika, VLC blend neblika, tak nevim co mas jak nastaveno
    Odpovídat lze po přihlášení

  9. #9
    Nováček
    Registrace
    Oct 2012
    Příspěvků
    5

    Omlouvám se, měl jsem hned napsat, kde to blbne...

    Exportovaný soubor "00000.m2ts" se seká při přehrávání na TV Samsung, WD live TV.

    Přehrává se OK ve Windows media player, ve VLC není obraz ostrý.

    Přikládám video, kde jde vidět sekání na TV.
    Odpovídat lze po přihlášení

  10. #10
    Je tu pravidelně Avatar uživatele 666dia
    Registrace
    Nov 2005
    Příspěvků
    884

    no tak tohle video si nepřehraju....

    mě televize Samsung ani sat. přijímač nepřehraje m2ts a nechápu, proč takový video má 25 Mbps, na to stačí 6 Mbps....
    i to je možná důvod, proč to nepřehraje...
    Naposledy upraveno uživatelem 666dia: 05-10-2012 v 18:42
    Odpovídat lze po přihlášení

  11. #11
    Nováček
    Registrace
    Oct 2012
    Příspěvků
    5

    TV Samsung to prehraje, ale chce to zmenit koncovku na ".mkv"
    Odpovídat lze po přihlášení

  12. #12
    Je tu pravidelně Avatar uživatele 666dia
    Registrace
    Nov 2005
    Příspěvků
    884

    proč to nedáš do mp4 třeba 10 Mbps...?
    kodek H.264
    Odpovídat lze po přihlášení



  13. #13

    ai ai je offline
    Je tu pořád
    Registrace
    Feb 2007
    Příspěvků
    3,739

    me oba dva soubory WDTV Live prehrava , tento: http://www.amazon.com/Western-Digita.../dp/B002KKFP9Y , pozor tento jsem nezkousel: http://www.amazon.com/Western-Digita.../dp/B005KOZNBW ,

    ale jak pise kuba1999 je to lepsi ten vysledny m2ts preklopit to mkv kontejneru, treba pomoci mkvtoolnix (mkvmerge) http://www.videohelp.com/tools/MKVtoolnix
    Odpovídat lze po přihlášení

  14. #14
    Nováček
    Registrace
    Oct 2012
    Příspěvků
    5

    Já přehrával na tom druhém...

    Teď jsem zkusil vyexportovat kousek videa za pomocí nového Pinacle studia 16 a vše je OK.... (což bych čekal úplně naopak -> bezproblémový chod Adobe Premiery)

    Kód:
    General
    ID                               : 1 (0x1)
    Complete name                    : D:\test.mts
    Format                           : BDAV
    Format/Info                      : Blu-ray Video
    File size                        : 102 MiB
    Duration                         : 33s 601ms
    Overall bit rate                 : 25.5 Mbps
    Maximum Overall bit rate         : 28.8 Mbps
    
    Video
    ID                               : 4113 (0x1011)
    Menu ID                          : 1 (0x1)
    Format                           : AVC
    Format/Info                      : Advanced Video Codec
    Format profile                   : Main@L4.1
    Format settings, CABAC           : No
    Format settings, ReFrames        : 2 frames
    Format settings, GOP             : M=1, N=30
    Codec ID                         : 27
    Duration                         : 33s 280ms
    Bit rate mode                    : Variable
    Bit rate                         : 24.1 Mbps
    Maximum bit rate                 : 24.0 Mbps
    Width                            : 1 920 pixels
    Height                           : 1 080 pixels
    Display aspect ratio             : 16:9
    Frame rate                       : 25.000 fps
    Color space                      : YUV
    Chroma subsampling               : 4:2:0
    Bit depth                        : 8 bits
    Scan type                        : Interlaced
    Scan order                       : Top Field First
    Bits/(Pixel*Frame)               : 0.465
    Stream size                      : 95.7 MiB (93%)
    
    Audio
    ID                               : 4352 (0x1100)
    Menu ID                          : 1 (0x1)
    Format                           : AC-3
    Format/Info                      : Audio Coding 3
    Mode extension                   : CM (complete main)
    Codec ID                         : 129
    Duration                         : 33s 280ms
    Bit rate mode                    : Constant
    Bit rate                         : 384 Kbps
    Channel(s)                       : 6 channels
    Channel positions                : Front: L C R, Side: L R, LFE
    Sampling rate                    : 48.0 KHz
    Bit depth                        : 16 bits
    Compression mode                 : Lossy
    Stream size                      : 1.52 MiB (1%)
    Odpovídat lze po přihlášení

  15. #15
    Nováček
    Registrace
    Jun 2007
    Příspěvků
    92

    Zkusmo jsem si AP CS6 nainstaloval, ale úplně mi v úvodním nastavení projektu chybí AVCHD? Poradite kde je chybka a co s tím? Dík
    Odpovídat lze po přihlášení

Strana 1 z 2 12 PosledníPoslední

Podobná témata

  1. Adobe Premiere CS 6 a AVCHD
    Od Dodlo v sekci Editace videa
    Reakcí: 2
    Poslední příspěvek: 15-08-2012, 12:10
  2. Adobe premiere - AVCHD
    Od Mike00777 v sekci Editace videa
    Reakcí: 7
    Poslední příspěvek: 22-01-2012, 15:17
  3. EXPORT VIDEA - Adobe premiere pro 2
    Od jirisuch v sekci Editace videa
    Reakcí: 1
    Poslední příspěvek: 16-02-2009, 19:23
  4. Export HDV (do WMV) v Adobe premiere CS3
    Od defox v sekci Editace videa
    Reakcí: 7
    Poslední příspěvek: 08-12-2008, 14:20
  5. Adobe Premiere Pro export na DVD+R DL
    Od gremla v sekci Editace videa
    Reakcí: 5
    Poslední příspěvek: 15-12-2007, 01:21