Při uložení DVD do MKV v programu RipBot264 se mi výsledné video na TV nezobrazuje správně - video není přes celou obrazovku, tz. že jsou kolem videa černé pruhy.
Přitom při přehrávání na PC se obraz zobrazuje správně.

General
Unique ID : 178411293444787304952124555068755151221 (0x8638C3E72D1522479414C0AD41000975)
Complete name : Vlastní film.mkv
Format : Matroska
Format version : Version 4 / Version 2
File size : 1.39 GiB
Duration : 1h 52mn
Overall bit rate mode : Variable
Overall bit rate : 1 769 Kbps
Movie name : Oko dravce 2008 akcni 720x576
Encoded date : UTC 2013-04-01 09:16:05
Writing application : mkvmerge v6.0.0 ('Coming Up For Air') built on Jan 20 2013 12:38:35
Writing library : libebml v1.3.0 + libmatroska v1.4.0

Video
ID : 1
Format : AVC
Format/Info : Advanced Video Codec
Format profile : High@L4.0
Format settings, CABAC : Yes
Format settings, ReFrames : 3 frames
Codec ID : V_MPEG4/ISO/AVC
Duration : 1h 52mn
Bit rate mode : Variable
Bit rate : 1 285 Kbps
Maximum bit rate : 25.0 Mbps
Width : 720 pixels
Height : 576 pixels
Display aspect ratio : 16:9
Frame rate : 25.000 fps
Standard : PAL
Color space : YUV
Chroma subsampling : 4:2:0
Bit depth : 8 bits
Scan type : Progressive
Bits/(Pixel*Frame) : 0.124
Stream size : 1.01 GiB (73%)
Writing library : x264 core 129 r2245 bc13772
Encoding settings : cabac=1 / ref=3 / deblock=1:0:0 / analyse=0x3:0x113 / me=hex / subme=7 / psy=1 / psy_rd=1.00:0.00 / mixed_ref=1 / me_range=16 / chroma_me=1 / trellis=1 / 8x8dct=1 / cqm=0 / deadzone=21,11 / fast_pskip=1 / chroma_qp_offset=-2 / threads=6 / lookahead_threads=1 / sliced_threads=0 / nr=0 / decimate=1 / interlaced=0 / bluray_compat=0 / constrained_intra=0 / bframes=3 / b_pyramid=0 / b_adapt=1 / b_bias=0 / direct=1 / weightb=1 / open_gop=0 / weightp=2 / keyint=250 / keyint_min=25 / scenecut=40 / intra_refresh=0 / rc_lookahead=40 / rc=crf / mbtree=1 / crf=20.0 / qcomp=0.60 / qpmin=0 / qpmax=69 / qpstep=4 / vbv_maxrate=25000 / vbv_bufsize=25000 / crf_max=0.0 / nal_hrd=vbr / ip_ratio=1.40 / aq=1:1.00
Default : Yes
Forced : No

Audio
ID : 2
Format : AC-3
Format/Info : Audio Coding 3
Mode extension : CM (complete main)
Codec ID : A_AC3
Duration : 1h 52mn
Bit rate mode : Constant
Bit rate : 448 Kbps
Channel(s) : 6 channels
Channel positions : Front: L C R, Side: L R, LFE
Sampling rate : 48.0 KHz
Bit depth : 16 bits
Compression mode : Lossy
Stream size : 361 MiB (25%)
Language : Czech
Default : Yes
Forced : No


Jiný film který jsem stáhnul z internetu se zobrazuje správně
General
Unique ID : 227571614532782947902801545556669181313 (0xAB34B2DD7CACE4CD88B8702DA2C72D81)
Complete name : Film z internetu.mkv
Format : Matroska
Format version : Version 2
File size : 6.78 GiB
Duration : 2h 15mn
Overall bit rate : 7 193 Kbps
Encoded date : UTC 2012-12-05 22:10:30
Writing application : mkvmerge v5.8.0 ('No Sleep / Pillow') built on Sep 2 2012 15:37:04
Writing library : libebml v1.2.3 + libmatroska v1.3.0

Video
ID : 1
Format : AVC
Format/Info : Advanced Video Codec
Format profile : High@L4.1
Format settings, CABAC : Yes
Format settings, ReFrames : 5 frames
Codec ID : V_MPEG4/ISO/AVC
Duration : 2h 15mn
Bit rate : 4 283 Kbps
Width : 1 280 pixels
Height : 536 pixels
Display aspect ratio : 2.40:1
Frame rate : 23.976 fps
Color space : YUV
Chroma subsampling : 4:2:0
Bit depth : 8 bits
Scan type : Progressive
Bits/(Pixel*Frame) : 0.260
Stream size : 3.91 GiB (58%)
Writing library : x264 core 129 r2230 1cffe9f
Encoding settings : cabac=1 / ref=5 / deblock=1:0:0 / analyse=0x3:0x133 / me=umh / subme=7 / psy=1 / psy_rd=1.00:0.00 / mixed_ref=1 / me_range=16 / chroma_me=1 / trellis=1 / 8x8dct=1 / cqm=0 / deadzone=21,11 / fast_pskip=0 / chroma_qp_offset=-2 / threads=12 / lookahead_threads=2 / sliced_threads=0 / nr=0 / decimate=1 / interlaced=0 / bluray_compat=0 / constrained_intra=0 / bframes=3 / b_pyramid=2 / b_adapt=1 / b_bias=0 / direct=1 / weightb=1 / open_gop=0 / weightp=2 / keyint=250 / keyint_min=23 / scenecut=40 / intra_refresh=0 / rc_lookahead=40 / rc=2pass / mbtree=1 / bitrate=4283 / ratetol=1.0 / qcomp=0.60 / qpmin=0 / qpmax=69 / qpstep=4 / cplxblur=20.0 / qblur=0.5 / ip_ratio=1.40 / aq=1:1.00
Language : English
Default : Yes
Forced : No

Audio #1
ID : 2
Format : DTS
Format/Info : Digital Theater Systems
Codec ID : A_DTS
Duration : 2h 15mn
Bit rate mode : Constant
Bit rate : 755 Kbps
Channel(s) : 6 channels
Channel positions : Front: L C R, Side: L R, LFE
Sampling rate : 48.0 KHz
Bit depth : 24 bits
Compression mode : Lossy
Stream size : 729 MiB (10%)
Title : cz
Language : Czech
Default : Yes
Forced : No

Audio #2
ID : 3
Format : AC-3
Format/Info : Audio Coding 3
Mode extension : CM (complete main)
Codec ID : A_AC3
Duration : 2h 15mn
Bit rate mode : Constant
Bit rate : 640 Kbps
Channel(s) : 6 channels
Channel positions : Front: L C R, Side: L R, LFE
Sampling rate : 48.0 KHz
Bit depth : 16 bits
Compression mode : Lossy
Stream size : 618 MiB (9%)
Title : cz
Language : Czech
Default : No
Forced : No

Audio #3
ID : 4
Format : DTS
Format/Info : Digital Theater Systems
Codec ID : A_DTS
Duration : 2h 15mn
Bit rate mode : Constant
Bit rate : 1 510 Kbps
Channel(s) : 6 channels
Channel positions : Front: L C R, Side: L R, LFE
Sampling rate : 48.0 KHz
Bit depth : 24 bits
Compression mode : Lossy
Stream size : 1.42 GiB (21%)
Title : en
Language : English
Default : No
Forced : No

Text
ID : 5
Format : UTF-8
Codec ID : S_TEXT/UTF8
Codec ID/Info : UTF-8 Plain Text
Title : en
Language : English
Default : No
Forced : No

Menu
00:00:00.000 : en:00:00:00.000
00:08:43.690 : en:00:08:43.690
00:14:26.616 : en:00:14:26.616
00:19:57.488 : en:00:19:57.488
00:27:53.297 : en:00:27:53.297
00:34:18.265 : en:00:34:18.265
00:42:52.403 : en:00:42:52.403
00:47:57.374 : en:00:47:57.374
00:53:56.066 : en:00:53:56.066
01:00:29.167 : en:01:00:29.167
01:07:36.636 : en:01:07:36.636
01:14:36.972 : en:01:14:36.972
01:22:39.204 : en:01:22:39.204
01:28:37.687 : en:01:28:37.687
01:36:39.043 : en:01:36:39.043
01:41:05.685 : en:01:41:05.685
01:45:07.968 : en:01:45:07.968
01:52:15.520 : en:01:52:15.520
02:00:07.283 : en:02:00:07.283
02:05:06.416 : en:02:05:06.416

Zaboha nemohu přijít na to, jak provést nastavení, aby se mi film na TV zobrazoval též správně